Стаж: 10 лет 11 месяцев

Сообщений: 3345

Camerado · 02-Июн-15 08:56(5 лет 7 месяцев назад, ред. 02-Июн-15 09:12)

Metallica
Masters Of Metal
Жанр: Thrash Metal, Documentary
Продолжительность: 01:05:58
Источник:HDBits
Описание: They are one of the most influential heavy metal bands of all time. Alongside Slayer, Anthrax and Megadeth, the Masters of Metal are an important part of the 'big four'. Over 100 million record sales worldwide, they are one of the most commercially successful bands of all time. With a career that spans over 33 years, the band created by James Hatfield and Lars Ulrich as renamed a genre after themselves. From the early days in a garage to the successful heights of sell out stadium tours, they redesigned the concept of heavy metal music. This is the all access story about their journey. All rise to Metallica, the Masters of Metal.
Качество: Blu-ray
Контейнер: BDMV
Видеокодек: MPEG-4 AVC
Аудиокодек: DTS-HD Master Audio
Видео: 25000 kbps 1080i 25.000 fps 16:9 MPEG-4 AVC
Аудио: 2.0 48 kHz 2198 kbps 24-bit DTS-HD Master Audio
Аудио: 5.1 48 kHz 2605 kbps 16-bit DTS-HD Master Audio

Total Video
Title Codec Length Movie Size Disc Size Bitrate Bitrate Main Audio Track Secondary Audio Track
----- ------ ------- -------------- -------------- ------- ------- ------------------ ---------------------
00002.MPLS AVC 1:05:58 15 689 662 080 16 892 604 740 31.71 25.00 DTS-HD Master 2.0 2198Kbps (48kHz/24-bit)

DISC INFO:
Disc Title: METALLICA_MASTERS_OF_METAL
Disc Size: 16 892 604 740 bytes
Protection: AACS
BD-Java: No
Extras: 50Hz Content
BDInfo: 0.5.8
PLAYLIST REPORT:
Name: 00002.MPLS
Length: 1:05:58.680 (h:m:s.ms)
Size: 15 689 662 080 bytes
Total Bitrate: 31.71 Mbps
VIDEO:
Codec Bitrate Description
----- ------- -----------
MPEG-4 AVC Video 25000 kbps 1080i / 25 fps / 16:9 / High Profile 4.1
AUDIO:
Codec Language Bitrate Description
----- -------- ------- -----------
DTS-HD Master Audio German 2198 kbps 2.0 / 48 kHz / 2198 kbps / 24-bit (DTS Core: 2.0 / 48 kHz / 1509 kbps / 24-bit / DN -2dB)
DTS-HD Master Audio English 2605 kbps 5.1 / 48 kHz / 2605 kbps / 16-bit (DTS Core: 5.1 / 48 kHz / 1509 kbps / 16-bit / DN -2dB)
SUBTITLES:
Codec Language Bitrate Description
----- -------- ------- -----------
Presentation Graphics English 0.052 kbps
Presentation Graphics German 0.000 kbps
Presentation Graphics English 49.702 kbps
FILES:
Name Time In Length Size Total Bitrate
---- ------- ------ ---- -------------
00008.M2TS 0:00:00.000 1:05:58.680 15 689 662 080 31 707
CHAPTERS:
Number Time In Length Avg Video Rate Max 1-Sec Rate Max 1-Sec Time Max 5-Sec Rate Max 5-Sec Time Max 10Sec Rate Max 10Sec Time Avg Frame Size Max Frame Size Max Frame Time
------ ------- ------ -------------- -------------- -------------- -------------- -------------- -------------- -------------- -------------- -------------- --------------
1 0:00:00.000 0:03:17.760 24 719 kbps 44 559 kbps 00:00:35.720 34 881 kbps 00:00:18.360 29 593 kbps 00:00:17.560 123 568 bytes 866 656 bytes 00:00:36.240
2 0:03:17.760 0:06:23.520 25 546 kbps 51 982 kbps 00:03:27.320 35 170 kbps 00:03:27.399 32 695 kbps 00:08:53.960 127 732 bytes 926 284 bytes 00:03:29.600
3 0:09:41.280 0:03:56.640 24 661 kbps 57 348 kbps 00:10:45.839 34 717 kbps 00:09:43.640 31 357 kbps 00:09:43.640 123 304 bytes 937 706 bytes 00:09:43.680
4 0:13:37.920 0:04:45.599 26 295 kbps 46 843 kbps 00:17:07.680 32 972 kbps 00:16:07.920 31 745 kbps 00:16:07.920 131 475 bytes 802 076 bytes 00:17:08.520
5 0:18:23.520 0:06:52.039 25 277 kbps 47 985 kbps 00:19:01.359 34 882 kbps 00:19:01.359 32 630 kbps 00:23:18.480 126 387 bytes 937 706 bytes 00:19:01.400
6 0:25:15.560 0:07:12.760 24 018 kbps 58 794 kbps 00:29:33.800 34 725 kbps 00:31:46.360 32 696 kbps 00:31:46.120 120 089 bytes 892 620 bytes 00:29:49.920
7 0:32:28.320 0:05:54.239 24 329 kbps 51 105 kbps 00:33:15.080 34 723 kbps 00:36:15.000 32 531 kbps 00:34:34.720 121 646 bytes 590 481 bytes 00:33:15.640
8 0:38:22.560 0:06:08.960 23 505 kbps 40 151 kbps 00:39:23.400 34 035 kbps 00:39:23.239 31 506 kbps 00:39:21.800 117 525 bytes 789 166 bytes 00:39:24.880
9 0:44:31.520 0:06:34.119 24 404 kbps 57 838 kbps 00:46:48.560 35 050 kbps 00:49:47.560 31 677 kbps 00:47:21.160 122 019 bytes 669 258 bytes 00:48:04.480
10 0:51:05.640 0:06:20.760 26 343 kbps 44 736 kbps 00:52:07.680 33 845 kbps 00:55:51.120 32 355 kbps 00:55:51.120 131 717 bytes 717 793 bytes 00:51:09.840
11 0:57:26.400 0:03:17.759 26 465 kbps 41 838 kbps 00:57:35.560 31 597 kbps 01:00:15.000 30 850 kbps 00:59:18.000 132 324 bytes 554 195 bytes 00:57:36.080
12 1:00:44.160 0:05:14.520 25 290 kbps 43 722 kbps 01:04:54.920 34 969 kbps 01:02:12.600 32 657 kbps 01:02:12.360 126 484 bytes 572 665 bytes 01:04:11.040

Total Video
Title Codec Length Movie Size Disc Size Bitrate Bitrate Main Audio Track Secondary Audio Track
----- ------ ------- -------------- -------------- ------- ------- ------------------ ---------------------
00012.MPLS MPEG-2 0:06:02 845 352 960 16 892 604 740 18.66 14.29 LPCM 2.0 1536Kbps (48kHz/16-bit) LPCM 2.0 1536Kbps (48kHz/16-bit)

DISC INFO:
Disc Title: METALLICA_MASTERS_OF_METAL
Disc Size: 16 892 604 740 bytes
Protection: AACS
BD-Java: No
Extras: 50Hz Content
BDInfo: 0.5.8
PLAYLIST REPORT:
Name: 00012.MPLS
Length: 0:06:02.440 (h:m:s.ms)
Size: 845 352 960 bytes
Total Bitrate: 18.66 Mbps
VIDEO:
Codec Bitrate Description
----- ------- -----------
MPEG-2 Video 14286 kbps 1080i / 25 fps / 16:9
AUDIO:
Codec Language Bitrate Description
----- -------- ------- -----------
LPCM Audio German 1536 kbps 2.0 / 48 kHz / 1536 kbps / 16-bit
LPCM Audio German 1536 kbps 2.0 / 48 kHz / 1536 kbps / 16-bit
SUBTITLES:
Codec Language Bitrate Description
----- -------- ------- -----------
Presentation Graphics German 0.519 kbps
Presentation Graphics German 0.519 kbps
Presentation Graphics German 0.519 kbps
FILES:
Name Time In Length Size Total Bitrate
---- ------- ------ ---- -------------
00016.M2TS 0:00:00.000 0:01:34.519 224 894 976 19 035
00005.M2TS 0:01:34.519 0:02:22.320 336 064 512 18 891
00006.M2TS 0:03:56.840 0:02:04.600 284 252 160 18 251
00017.M2TS 0:06:01.440 0:00:01.000 141 312 1 130
CHAPTERS:
Number Time In Length Avg Video Rate Max 1-Sec Rate Max 1-Sec Time Max 5-Sec Rate Max 5-Sec Time Max 10Sec Rate Max 10Sec Time Avg Frame Size Max Frame Size Max Frame Time
------ ------- ------ -------------- -------------- -------------- -------------- -------------- -------------- -------------- -------------- -------------- --------------
1 0:00:00.000 0:01:34.519 14 640 kbps 22 580 kbps 00:00:55.159 19 350 kbps 00:00:55.159 17 977 kbps 00:00:49.120 73 167 bytes 367 985 bytes 00:00:40.600
2 0:01:34.519 0:02:22.320 14 499 kbps 20 690 kbps 00:02:02.039 18 171 kbps 00:02:02.279 17 373 kbps 00:02:01.920 72 494 bytes 419 056 bytes 00:02:09.120
3 0:03:56.840 0:02:05.600 13 780 kbps 21 178 kbps 00:04:19.280 18 822 kbps 00:04:18.320 17 848 kbps 00:04:18.040 68 922 bytes 379 061 bytes 00:05:36.920

Total Video
Title Codec Length Movie Size Disc Size Bitrate Bitrate Main Audio Track Secondary Audio Track
----- ------ ------- -------------- -------------- ------- ------- ------------------ ---------------------
00000.MPLS MPEG-2 0:04:47 642 213 888 16 892 604 740 17.85 13.76 LPCM 2.0 1536Kbps (48kHz/16-bit) LPCM 2.0 1536Kbps (48kHz/16-bit)

DISC INFO:
Disc Title: METALLICA_MASTERS_OF_METAL
Disc Size: 16 892 604 740 bytes
Protection: AACS
BD-Java: No
Extras: 50Hz Content
BDInfo: 0.5.8
PLAYLIST REPORT:
Name: 00000.MPLS
Length: 0:04:47.840 (h:m:s.ms)
Size: 642 213 888 bytes
Total Bitrate: 17.85 Mbps
VIDEO:
Codec Bitrate Description
----- ------- -----------
MPEG-2 Video 13757 kbps 1080i / 25 fps / 16:9
AUDIO:
Codec Language Bitrate Description
----- -------- ------- -----------
LPCM Audio German 1536 kbps 2.0 / 48 kHz / 1536 kbps / 16-bit
LPCM Audio German 1536 kbps 2.0 / 48 kHz / 1536 kbps / 16-bit
SUBTITLES:
Codec Language Bitrate Description
----- -------- ------- -----------
Presentation Graphics German 0.436 kbps
Presentation Graphics German 0.436 kbps
Presentation Graphics German 0.436 kbps
FILES:
Name Time In Length Size Total Bitrate
---- ------- ------ ---- -------------
00001.M2TS 0:00:00.000 0:00:09.960 11 200 512 8 996
00003.M2TS 0:00:09.960 0:00:09.960 10 555 392 8 478
00005.M2TS 0:00:19.920 0:02:22.320 336 064 512 18 891
00006.M2TS 0:02:42.240 0:02:04.600 284 252 160 18 251
00017.M2TS 0:04:46.840 0:00:01.000 141 312 1 130
CHAPTERS:
Number Time In Length Avg Video Rate Max 1-Sec Rate Max 1-Sec Time Max 5-Sec Rate Max 5-Sec Time Max 10Sec Rate Max 10Sec Time Avg Frame Size Max Frame Size Max Frame Time
------ ------- ------ -------------- -------------- -------------- -------------- -------------- -------------- -------------- -------------- -------------- --------------
1 0:00:00.000 0:00:09.960 8 741 kbps 9 492 kbps 00:00:08.960 9 124 kbps 00:00:04.960 0 kbps 00:00:00.000 43 528 bytes 323 092 bytes 00:00:08.840
2 0:00:09.960 0:00:09.960 7 892 kbps 8 846 kbps 00:00:18.200 8 539 kbps 00:00:14.600 0 kbps 00:00:00.000 39 461 bytes 296 025 bytes 00:00:18.800
3 0:00:19.920 0:02:22.320 14 499 kbps 20 690 kbps 00:00:47.440 18 171 kbps 00:00:47.680 17 373 kbps 00:00:47.320 72 494 bytes 419 056 bytes 00:00:54.520
4 0:02:42.240 0:02:05.600 13 780 kbps 21 178 kbps 00:03:04.680 18 822 kbps 00:03:03.720 17 848 kbps 00:03:03.440 68 922 bytes 379 061 bytes 00:04:22.320

Total Video
Title Codec Length Movie Size Disc Size Bitrate Bitrate Main Audio Track Secondary Audio Track
----- ------ ------- -------------- -------------- ------- ------- ------------------ ---------------------
00007.MPLS MPEG-2 0:02:23 336 205 824 16 892 604 740 18.77 14.40 LPCM 2.0 1536Kbps (48kHz/16-bit) LPCM 2.0 1536Kbps (48kHz/16-bit)

DISC INFO:
Disc Title: METALLICA_MASTERS_OF_METAL
Disc Size: 16 892 604 740 bytes
Protection: AACS
BD-Java: No
Extras: 50Hz Content
BDInfo: 0.5.8
PLAYLIST REPORT:
Name: 00007.MPLS
Length: 0:02:23.320 (h:m:s.ms)
Size: 336 205 824 bytes
Total Bitrate: 18.77 Mbps
VIDEO:
Codec Bitrate Description
----- ------- -----------
MPEG-2 Video 14405 kbps 1080i / 25 fps / 16:9
AUDIO:
Codec Language Bitrate Description
----- -------- ------- -----------
LPCM Audio German 1536 kbps 2.0 / 48 kHz / 1536 kbps / 16-bit
LPCM Audio German 1536 kbps 2.0 / 48 kHz / 1536 kbps / 16-bit
SUBTITLES:
Codec Language Bitrate Description
----- -------- ------- -----------
Presentation Graphics German 0.438 kbps
Presentation Graphics German 0.438 kbps
Presentation Graphics German 0.438 kbps
FILES:
Name Time In Length Size Total Bitrate
---- ------- ------ ---- -------------
00005.M2TS 0:00:00.000 0:02:22.320 336 064 512 18 891
00017.M2TS 0:02:22.320 0:00:01.000 141 312 1 130
CHAPTERS:
Number Time In Length Avg Video Rate Max 1-Sec Rate Max 1-Sec Time Max 5-Sec Rate Max 5-Sec Time Max 10Sec Rate Max 10Sec Time Avg Frame Size Max Frame Size Max Frame Time
------ ------- ------ -------------- -------------- -------------- -------------- -------------- -------------- -------------- -------------- -------------- --------------
1 0:00:00.000 0:02:23.320 14 405 kbps 20 690 kbps 00:00:27.519 18 171 kbps 00:00:27.759 17 373 kbps 00:00:27.400 72 023 bytes 419 056 bytes 00:00:34.600

Total Video
Title Codec Length Movie Size Disc Size Bitrate Bitrate Main Audio Track Secondary Audio Track
----- ------ ------- -------------- -------------- ------- ------- ------------------ ---------------------
00008.MPLS MPEG-2 0:02:05 284 393 472 16 892 604 740 18.11 13.78 LPCM 2.0 1536Kbps (48kHz/16-bit) LPCM 2.0 1536Kbps (48kHz/16-bit)

DISC INFO:
Disc Title: METALLICA_MASTERS_OF_METAL
Disc Size: 16 892 604 740 bytes
Protection: AACS
BD-Java: No
Extras: 50Hz Content
BDInfo: 0.5.8
PLAYLIST REPORT:
Name: 00008.MPLS
Length: 0:02:05.600 (h:m:s.ms)
Size: 284 393 472 bytes
Total Bitrate: 18.11 Mbps
VIDEO:
Codec Bitrate Description
----- ------- -----------
MPEG-2 Video 13783 kbps 1080i / 25 fps / 16:9
AUDIO:
Codec Language Bitrate Description
----- -------- ------- -----------
LPCM Audio German 1536 kbps 2.0 / 48 kHz / 1536 kbps / 16-bit
LPCM Audio German 1536 kbps 2.0 / 48 kHz / 1536 kbps / 16-bit
SUBTITLES:
Codec Language Bitrate Description
----- -------- ------- -----------
Presentation Graphics German 0.499 kbps
Presentation Graphics German 0.499 kbps
Presentation Graphics German 0.499 kbps
FILES:
Name Time In Length Size Total Bitrate
---- ------- ------ ---- -------------
00006.M2TS 0:00:00.000 0:02:04.600 284 252 160 18 251
00017.M2TS 0:02:04.600 0:00:01.000 141 312 1 130
CHAPTERS:
Number Time In Length Avg Video Rate Max 1-Sec Rate Max 1-Sec Time Max 5-Sec Rate Max 5-Sec Time Max 10Sec Rate Max 10Sec Time Avg Frame Size Max Frame Size Max Frame Time
------ ------- ------ -------------- -------------- -------------- -------------- -------------- -------------- -------------- -------------- -------------- --------------
1 0:00:00.000 0:02:05.600 13 783 kbps 21 178 kbps 00:00:22.440 18 822 kbps 00:00:21.480 17 848 kbps 00:00:21.200 68 915 bytes 379 061 bytes 00:01:40.080

Total Video
Title Codec Length Movie Size Disc Size Bitrate Bitrate Main Audio Track Secondary Audio Track
----- ------ ------- -------------- -------------- ------- ------- ------------------ ---------------------
00005.MPLS MPEG-2 0:02:00 237 963 264 16 892 604 740 15.86 11.63 LPCM 2.0 1536Kbps (48kHz/16-bit)

DISC INFO:
Disc Title: METALLICA_MASTERS_OF_METAL
Disc Size: 16 892 604 740 bytes
Protection: AACS
BD-Java: No
Extras: 50Hz Content
BDInfo: 0.5.8
PLAYLIST REPORT:
Name: 00005.MPLS
Length: 0:02:00.000 (h:m:s.ms)
Size: 237 963 264 bytes
Total Bitrate: 15.86 Mbps
VIDEO:
Codec Bitrate Description
----- ------- -----------
MPEG-2 Video 11627 kbps 1080i / 25 fps / 16:9
AUDIO:
Codec Language Bitrate Description
----- -------- ------- -----------
LPCM Audio German 1536 kbps 2.0 / 48 kHz / 1536 kbps / 16-bit
LPCM Audio English 1536 kbps 2.0 / 48 kHz / 1536 kbps / 16-bit
SUBTITLES:
Codec Language Bitrate Description
----- -------- ------- -----------
Presentation Graphics German 0.523 kbps
Presentation Graphics German 0.523 kbps
Presentation Graphics German 0.523 kbps
FILES:
Name Time In Length Size Total Bitrate
---- ------- ------ ---- -------------
00000.M2TS 0:00:00.000 0:01:59.000 237 821 952 15 988
00017.M2TS 0:01:59.000 0:00:01.000 141 312 1 130
CHAPTERS:
Number Time In Length Avg Video Rate Max 1-Sec Rate Max 1-Sec Time Max 5-Sec Rate Max 5-Sec Time Max 10Sec Rate Max 10Sec Time Avg Frame Size Max Frame Size Max Frame Time
------ ------- ------ -------------- -------------- -------------- -------------- -------------- -------------- -------------- -------------- -------------- --------------
1 0:00:00.000 0:02:00.000 11 627 kbps 20 559 kbps 00:00:55.080 17 009 kbps 00:00:54.480 15 745 kbps 00:00:52.680 58 134 bytes 702 653 bytes 00:00:56.320

Total Video
Title Codec Length Movie Size Disc Size Bitrate Bitrate Main Audio Track Secondary Audio Track
----- ------ ------- -------------- -------------- ------- ------- ------------------ ---------------------
00006.MPLS MPEG-2 0:01:35 225 036 288 16 892 604 740 18.85 14.49 LPCM 2.0 1536Kbps (48kHz/16-bit) LPCM 2.0 1536Kbps (48kHz/16-bit)

DISC INFO:
Disc Title: METALLICA_MASTERS_OF_METAL
Disc Size: 16 892 604 740 bytes
Protection: AACS
BD-Java: No
Extras: 50Hz Content
BDInfo: 0.5.8
PLAYLIST REPORT:
Name: 00006.MPLS
Length: 0:01:35.519 (h:m:s.ms)
Size: 225 036 288 bytes
Total Bitrate: 18.85 Mbps
VIDEO:
Codec Bitrate Description
----- ------- -----------
MPEG-2 Video 14493 kbps 1080i / 25 fps / 16:9
AUDIO:
Codec Language Bitrate Description
----- -------- ------- -----------
LPCM Audio German 1536 kbps 2.0 / 48 kHz / 1536 kbps / 16-bit
LPCM Audio German 1536 kbps 2.0 / 48 kHz / 1536 kbps / 16-bit
SUBTITLES:
Codec Language Bitrate Description
----- -------- ------- -----------
Presentation Graphics German 0.657 kbps
Presentation Graphics German 0.657 kbps
Presentation Graphics German 0.657 kbps
FILES:
Name Time In Length Size Total Bitrate
---- ------- ------ ---- -------------
00016.M2TS 0:00:00.000 0:01:34.519 224 894 976 19 035
00017.M2TS 0:01:34.519 0:00:01.000 141 312 1 130
CHAPTERS:
Number Time In Length Avg Video Rate Max 1-Sec Rate Max 1-Sec Time Max 5-Sec Rate Max 5-Sec Time Max 10Sec Rate Max 10Sec Time Avg Frame Size Max Frame Size Max Frame Time
------ ------- ------ -------------- -------------- -------------- -------------- -------------- -------------- -------------- -------------- -------------- --------------
1 0:00:00.000 0:01:35.519 14 493 kbps 22 580 kbps 00:00:55.159 19 350 kbps 00:00:55.159 17 977 kbps 00:00:49.120 72 466 bytes 367 985 bytes 00:00:40.600
Download
  • 15.73 GB
Rutracker.org не распространяет и не хранит электронные версии произведений, а лишь предоставляет доступ к создаваемому пользователями каталогу ссылок на торрент-файлы, которые содержат только списки хеш-сумм
Как скачивать?(для скачивания .torrent файлов необходима регистрация)

ovpovp

Стаж: 12 лет 4 месяца

Сообщений: 229


ovpovp · 02-Июн-15 11:24(спустя 2 часа 28 мин.)

Altkhor

Стаж: 11 лет 10 месяцев

Сообщений: 241

Altkhor · 04-Июн-15 08:27(спустя 1 день 21 час)

Если бы еще кто перевел..вот уж действительно не было бы слов!..

Павел1979Коротков

Стаж: 9 лет

Сообщений: 169

Павел1979Коротков · 04-Июн-15 13:52(спустя 5 часов)

Downloading the Cutting Master 3 for Macintosh This software is plug-in software for the Adobe Illustrator on the Macintosh. It sends the cutting object to the Graphtec cutting plotter, and can also control the plotter. If the Cutting Master 3 is used on the MAC OS X 10.5. Dmg file cutting master 3 mac software.

СПАСИБО ОГРОМНОЕ!!!!!!!!!! Забираю все что есть о Metallica)))))
Кстати про перевод очень актуально, может закинуть материал тем парням , которые переводили фильм о Сенне? Вроде питерская банда, если не ошибаюсь из Нешенел географик Россия...

I-van.M

Стаж: 12 лет 6 месяцев

Сообщений: 49


I-van.M · 06-Июн-15 09:15(спустя 1 день 19 часов, ред. 06-Июн-15 12:19)

Перевод скоро будет. На ХД клабе ведутся работы по этому. Все ждем. Извиняюсь, ложная информация.

Павел1979Коротков

Стаж: 9 лет

Сообщений: 169

Павел1979Коротков · 06-Июн-15 13:15(спустя 3 часа)

))))))))) Вань, ты уж не забудь поделиться потом ложной информацией!))))
кстати даже если можно в личку!!!! - буду очень признателен!

ADVOKAT69

Стаж: 8 лет

Сообщений: 198


ADVOKAT69 · 18-Июн-15 12:42(спустя 11 дней)

67957364Описание: Они являются одним из самых влиятельных металлических групп всех времен. Наряду Slayer, Anthrax и Megadeth, Мастера металла важной частью 'большой четверки'. Более 100 миллионов рекорд продаж по всему миру, они являются одним из самых коммерчески успешных групп всех времен. С карьеры, охватывающей более 33 лет, группа создала Джеймс Хэтфилд и Ларс Ульрих также переименовали жанр после себя. С первых дней в гараже на успешных высот продать стадион туры, они переработали концепцию тяжелой музыки. Это история о всех доступ их путешествия. Все встают, чтобы Metallica, Мастера Metal.

Жук3

Стаж: 11 лет 8 месяцев

Сообщений: 2904

Жук3 · 27-Дек-18 13:34(спустя 3 года 6 месяцев)

Скажите, а будет ли раздача? Сиды дайте скорости, спасибо!

Acme1980

Стаж: 11 лет 11 месяцев

Сообщений: 323

Acme1980 · 15-Ноя-19 00:01(спустя 10 месяцев)

К сожалению, абсолютно необязательно к просмотру

Biyo

Стаж: 10 лет 9 месяцев

Сообщений: 1916

Biyo · 11-Дек-20 06:54(спустя 1 год)

Camerado Благодарю!
Главная»Музыкальное видео»Музыкальное HD видео»Документальные фильмы о музыке и музыкантах (HD Video)
  1. Metallica Masters Of Metal Ozlem Full
  2. Masters Of Metal Cd

Metallica Masters Of Metal Ozlem Full

Стаж: 10 лет 11 месяцев

Сообщений: 3345

Camerado · 16-Май-15 14:42(5 лет 8 месяцев назад, ред. 18-Май-15 12:26)

Metallica
Masters Of Metal
Жанр: Thrash Metal, Documentary
Продолжительность: 01:06:32
Release Group:DEV0
Описание: They are one of the most influential heavy metal bands of all time. Alongside Slayer, Anthrax and Megadeth, the Masters of Metal are an important part of the 'big four'. Over 100 million record sales worldwide, they are one of the most commercially successful bands of all time. With a career that spans over 33 years, the band created by James Hatfield and Lars Ulrich as renamed a genre after themselves. From the early days in a garage to the successful heights of sell out stadium tours, they redesigned the concept of heavy metal music. This is the all access story about their journey. All rise to Metallica, the Masters of Metal.
Качество: BDRip 1080p
Контейнер: MKV
Видеокодек: MPEG-4 AVC
Аудиокодек: DTS
Видео: ~10300 kbps 1920x1080 25.000 fps 16:9 MPEG-4 AVC
Аудио: 5.1 48 kHz 1509 kbps 24-bit DTS
Download
  • 5.46 GB
Rutracker.org не распространяет и не хранит электронные версии произведений, а лишь предоставляет доступ к создаваемому пользователями каталогу ссылок на торрент-файлы, которые содержат только списки хеш-сумм
Как скачивать?(для скачивания .torrent файлов необходима регистрация)

AlexSchl

Стаж: 12 лет

Сообщений: 2882

AlexSchl · 16-Май-15 16:39(спустя 1 час 57 мин.)

I-van.M

Стаж: 12 лет 6 месяцев

Сообщений: 49


I-van.M · 16-Май-15 18:20(спустя 1 час 40 мин.)

Valenok122

Стаж: 7 лет 2 месяца

Сообщений: 73

Valenok122 · 16-Май-15 21:12(спустя 2 часа 51 мин.)

По Скриншотам чуть не офигел, раритетные фото, да в таком качестве, уже понадеялся мол футаж в качестве на свет вылез, фиг там, по сути весь киноо пересказывание всеми известной истории и вставками из двух/трёх интервью, которые уже все видели..

Eddy_68

Стаж: 5 лет 9 месяцев

Сообщений: 53

Eddy_68 · 18-Май-15 07:53(спустя 1 день 10 часов, ред. 18-Май-15 07:53)

Ещё и без перевода.К своему стыду-не настолько силён в английском,чтобы без проблем смотреть и слушать этот фильм.А вообще,сам факт выхода этой документалки про Metallica немного удивляет.Чего нового там могут сказать?Что ещё поклонники группы не знают про них?

Acme1980

Стаж: 11 лет 11 месяцев

Сообщений: 323

Acme1980 · 04-Авг-19 20:19(спустя 4 года 2 месяца, ред. 02-Окт-19 22:38)

Невероятно лениво сделанный 'фильм', фанаты сейчас добротнее работают. Зачитывание Википедии под панорамные видосики ЛА и СФ, блин. В первые 10 минут фоном почти всё время одни и те же!!! минутные нарезки с зала славы и какого-то интервью. 'Ларс УльриЧ' моя отдельная боль, аж дергало каждый раз
К просмотру весьма необязательно. Вот это видео 2005 и то интереснее будет https://youtu.be/ZoJHs3Oaze8
Главная»Музыкальное видео»Музыкальное HD видео»Документальные фильмы о музыке и музыкантах (HD Video)
Masters

Masters Of Metal Cd

They are one of the most influential heavy metal bands of all time. Alongside Slayer, Anthrax and Megadeth, the Masters of Metal are an important part of the 'big four'. Over 100 million record sales worldwide, they are one of the most commercially successful bands of all time. With a career that spans over 33 years, the band created by James Hatfield and Lars Ulrich as renamed a genre after. All rise to Metallica, the Masters of Metal. Directors Billy Simpson Starring Alexander Milas, Malcolm Dome, Joel Mciver Genres Documentary Subtitles English CC Audio languages English. Watch for $0.00 with Prime. Watch with Prime Start your 30-day free trial. Add to Watchlist. Kill 'Em All is the debut studio album by American heavy metal band Metallica, released on July 25, 1983, through independent label Megaforce Records.Metallica began by playing shows in local clubs in Los Angeles. Metallica: Masters of Metal is an Musicals, Documentary movie that was released in 2015 and has a run time of 1 hr 9 min. Metallica: Masters of Metal is available to watch free on Tubi TV and stream, download, buy on demand at Amazon Prime, Google Play, iTunes, YouTube VOD online. And Justice For All. Five collections inspired by the masters of metal and the albums that started it all. In our fifth and final offering: we proudly present a premium design collaboration inspired by the band’s inimitable, 8x-platinum album: And Justice For All.